<?xml version="1.0" standalone="no"?>
<!DOCTYPE svg PUBLIC "-//W3C//DTD SVG 1.1//EN" "http://www.w3.org/Graphics/SVG/1.1/DTD/svg11.dtd">
<svg xmlns="http://www.w3.org/2000/svg">
<metadata>Generated by Fontastic.me</metadata>
<defs>
<font id="locamundo" horiz-adv-x="512">
<font-face font-family="locamundo" units-per-em="512" ascent="480" descent="-32"/>
<missing-glyph horiz-adv-x="512" />

<glyph glyph-name="action-mail" unicode="&#97;" d="M256 65c-64 0-129 0-194 0-29 0-53 19-60 46-1 5-2 11-2 16 0 87 0 174 0 262 0 22 17 46 38 53 9 3 17 5 25 5 129 0 258 0 387 0 33 0 59-24 62-58 0-3 0-6 0-10 0-83 0-167 0-250 0-19-6-34-19-47-11-11-25-17-41-17-65 0-130 0-196 0z m-222 344c1 0 1-1 1-1 68-68 136-136 203-204 11-11 26-10 37 0 67 68 134 135 201 203 1 0 2 1 3 2-9 9-19 13-30 13-129 0-257 0-386 0-1 0-2 0-4 0-10-1-18-5-25-13z m5-311c7-6 15-8 24-8 129 0 258 0 386 0 2 0 3 0 5 0 7 1 14 3 20 8-45 45-90 90-136 136 0-1-1-2-2-3-15-16-31-32-47-47-18-17-47-17-66 0-8 7-15 15-23 23-9 8-18 17-27 26-44-45-89-90-134-135z m448 283c-43-44-87-87-130-130 43-43 87-86 130-129 0 86 0 172 0 259z m-461-258c42 43 86 86 129 128-44 43-87 86-129 129 0-85 0-172 0-257z"/>
<glyph glyph-name="web-icon" unicode="&#98;" d="M511 273c-8 128-110 230-238 238l0 1-34 0 0-1c-128-8-230-110-238-238l-1 0 0-34 1 0c8-128 110-230 238-238l0-1 34 0 0 1c128 8 230 110 238 238l1 0 0 34z m-351 183c-16-22-30-49-40-81l-51 0c22 35 54 63 91 81z m-109-115l60 0c-4-21-7-44-8-68l-68 0c2 24 7 47 16 68z m-16-102l68 0c1-24 4-47 8-68l-60 0c-9 21-14 44-16 68z m34-102l51 0c10-32 24-59 40-81-37 18-69 46-91 81z m170-101c-35 10-65 47-84 101l84 0z m0 135l-93 0c-5 21-8 44-9 68l102 0z m0 102l-102 0c1 24 4 47 9 68l93 0z m0 102l-84 0c19 54 49 91 84 101z m204 0l-51 0c-10 32-24 59-40 81 37-18 69-46 91-81z m-170 101c35-10 65-47 84-101l-84 0z m0-135l93 0c5-21 8-44 9-68l-102 0z m0-102l102 0c-1-24-4-47-9-68l-93 0z m0-203l0 101 84 0c-19-54-49-91-84-101z m79 20c16 22 30 49 40 81l51 0c-22-35-54-63-91-81z m109 115l-60 0c4 21 7 44 8 68l68 0c-2-24-7-47-16-68z m-52 102c-1 24-4 47-8 68l60 0c9-21 14-44 16-68z"/>
<glyph glyph-name="arrow-down" unicode="&#99;" d="M287 117c-17-17-45-17-62 0l-211 217c-8 8-13 20-13 32 0 11 5 23 13 32 17 17 45 17 62 0l180-185 180 185c17 17 45 17 62 0 17-18 17-47 0-64z"/>
<glyph glyph-name="dropbox" unicode="&#100;" d="M411 310l101 75-144 87-103-69-103 69-162-86 103-79-86-79 84-49 0-35c0-2 2-5 5-7l143-93c1-1 2-2 3-3 1-1 2-1 4-1 1 0 2 0 3 1 0 0 1 1 1 1l146 95c3 0 5 4 5 6l0 41 84 54z m-155-79l-123 76 131 76 115-72z m84-71l-69 60 124 80 71-61z m28 291l113-68-84-61 0 0-2-1-115 71 1 1-1 0z m-207 0l87-58-131-76-86 65z m-43-155l123-76-67-63-60 35c0 0-1 0-1 0l-67 39z m1-128l51-30c1 0 1-1 2-1l4-2 26 24 45 42 0-137-128 85z m225-27l49 32 0-25-128-84 0 138 68-60c1-1 2-2 4-2l1-2 3 2c1 0 2 0 3 1z"/>
<glyph glyph-name="locked-padlock" unicode="&#101;" d="M452 293l-64 0 0 84c0 39-13 71-38 97-24 25-56 38-94 38-38 0-70-13-95-38-25-26-37-58-37-97l0-84-64 0c-10 0-17-8-17-18l0-257c0-10 7-18 17-18l392 0c9 0 17 8 17 18l0 257c0 10-8 18-17 18z m-292 84c0 29 9 53 27 71 18 19 41 28 69 28 28 0 51-9 69-28 18-18 27-42 27-71l0-84-192 0z m274-341l-356 0 0 222 356 0z m-196 110l0-74c0-10 8-19 18-19 10 0 18 9 18 19l0 74c15 7 26 21 26 36 0 11-5 20-14 28-9 8-18 12-30 12-11 0-22-4-31-12-9-8-13-17-13-28 0-15 11-29 26-36z"/>
<glyph glyph-name="previous" unicode="&#102;" d="M256 0c-141 0-255 115-255 256 0 141 114 256 255 256 141 0 255-115 255-256 0-141-114-256-255-256z m0 465c-115 0-209-93-209-209 0-116 94-210 209-210 116 0 210 94 210 210 0 116-94 209-210 209z m24-327l-117 118 116 117 33-33-84-84 85-85z"/>
<glyph glyph-name="video-camera" unicode="&#103;" d="M384 311l0-110 128-73 0 256z m-64 73l-288 0c-18 0-32-14-32-32l0-192c0-18 14-32 32-32l288 0c18 0 32 14 32 32l0 192c0 18-14 32-32 32z"/>
<glyph glyph-name="rearrange" unicode="&#104;" d="M493 403l-474 0c-11 0-19 7-19 17 0 9 8 16 19 16l474 0c11 0 19-7 19-16 0-10-8-17-19-17z m-483-76l213 0c6 0 11-7 11-16 0-10-5-17-11-17l-213 0c-5 0-10 7-10 17 0 9 5 16 10 16z m-1-109l166 0c4 0 8-7 8-17 0-9-4-16-8-16l-166 0c-5 0-9 7-9 16 0 10 4 17 9 17z m-2-109l118 0c4 0 7-7 7-17 0-9-3-16-7-16l-118 0c-4 0-7 7-7 16 0 10 3 17 7 17z m358 258c79 0 144-64 144-144 0-80-65-144-144-144-80 0-145 64-145 144 0 80 65 144 145 144z m-114-204c6-11 14-22 23-31 23-23 55-38 91-38 71 0 128 58 128 129 0 20-4 39-12 55-7 15-17 28-29 39-23 22-54 35-87 35-71 0-129-58-129-129 0-22 5-42 15-60z m106 4c25-3 49 9 62 29l12-7c-15-23-40-36-67-36-3 0-5 0-8 0-23 3-45 16-57 36l11 7c11-16 28-27 47-29z m51 70c-8 0-14 7-14 14 0 8 6 14 14 14 7 0 14-6 14-14 0-7-7-14-14-14z m-85 0c-7 0-13 7-13 14 0 8 6 14 13 14 8 0 14-6 14-14 0-7-6-14-14-14z"/>
<glyph glyph-name="redo" unicode="&#105;" d="M469 315c-4 10-16 15-26 11-10-4-15-16-11-26 9-22 14-46 14-71 0-104-85-190-190-190-105 0-190 86-190 190 0 105 85 190 190 190 15 0 30-2 44-5l-25 10c-10-4-15-16-11-26 4-8 11-12 19-12 2 0 5 0 7 1l74 30c10 4 15 15 11 26l-31 77c-4 10-16 15-26 11-10-4-15-16-11-26l15-36c-21 6-43 10-66 10-126 0-229-103-229-230 0-126 103-229 229-229 126 0 229 103 229 229 0 30-5 59-16 86z"/>
<glyph glyph-name="sad" unicode="&#106;" d="M256 512c-141 0-256-115-256-256 0-141 115-256 256-256 141 0 256 115 256 256 0 141-115 256-256 256z m0-490c-129 0-234 105-234 234 0 129 105 234 234 234 129 0 234-105 234-234 0-129-105-234-234-234z m-56 279c0 18-15 33-33 33-18 0-33-15-33-33 0-19 15-34 33-34 18 0 33 15 33 34z m-44 0c0 6 5 11 11 11 6 0 11-5 11-11 0-7-5-12-11-12-6 0-11 5-11 12z m189 33c-18 0-33-15-33-33 0-19 15-34 33-34 18 0 33 15 33 34 0 18-15 33-33 33z m0-45c-6 0-11 5-11 12 0 6 5 11 11 11 6 0 11-5 11-11 0-7-5-12-11-12z m-89-89c-41 0-81-17-108-48-5-4-4-12 0-16 5-4 12-3 16 1 23 26 57 41 92 41 35 0 69-15 92-41 2-2 5-3 8-3 3 0 5 0 8 2 4 4 5 12 0 16-27 31-66 48-108 48z"/>
<glyph glyph-name="scocial-mail" unicode="&#107;" d="M256 0c-141 0-256 115-256 256 0 141 115 256 256 256 141 0 256-115 256-256 0-141-115-256-256-256z m131 371c-49 0-99 0-148 0-38 0-76 0-114 0-5 0-9-1-12-4 48-42 95-84 143-125 48 42 96 83 144 125-4 3-8 4-13 4z m19-27c-50-43-100-87-150-130-50 44-100 87-150 131 0-2 0-3 0-4 0-54 0-109 0-163 0-11 8-19 18-19 88 0 176 0 264 0 1 0 3 0 4 0 9 2 14 9 14 20 0 54 0 108 0 162 0 1 0 2 0 3z"/>
<glyph glyph-name="scout" unicode="&#108;" d="M512 19l0 20c0 4-1 8-1 11-1 8-3 17-4 24-9 41-25 76-48 105-23 30-53 54-89 73-1 1-1 1-1 1-1 0-2 1-2 1-1 0-1 1-1 1-1 0-1 0-1 0l-4 3 4 6c0 1 1 2 2 3 35 44 43 92 24 143-20 51-58 82-114 92-2 1-4 1-6 1l-2 1-25 0c0 0-1 0-1 0-1-1-2-1-4-1-38-4-73-24-97-55-24-32-34-71-29-110 4-24 13-47 27-66 14-18 32-33 53-43 43-22 92-20 134 4 6 3 10 4 15 1 67-28 111-77 132-145 4-11 6-21 8-32 0-5 1-10 2-15l2-5-457 0 0 5c0 0 0 1 0 2 0 2 0 3 0 5 8 57 33 106 76 145 4 3 6 7 6 11 0 4-1 7-4 10-5 6-13 6-21 0-42-38-69-85-80-139-2-9-3-17-4-25-1-4-1-8-2-12l0-20c2-5 6-9 10-11l492 0c5 2 8 6 10 11z m-174 257c-22-22-51-34-82-34-64 0-116 52-116 117 0 64 52 117 116 117 64 0 116-53 116-117 0-31-12-61-34-83z"/>
<glyph glyph-name="search" unicode="&#109;" d="M496 46l-122 126c31 38 48 84 48 133 0 114-92 207-206 207-114 0-207-93-207-207 0-114 93-206 207-206 42 0 83 12 118 37l123-128c5-5 12-8 19-8 7 0 14 3 19 8 11 10 11 27 1 38z m-280 412c84 0 152-68 152-153 0-84-68-153-152-153-85 0-153 69-153 153 0 85 68 153 153 153z"/>
<glyph glyph-name="smile" unicode="&#110;" d="M256 512c-141 0-256-115-256-256 0-141 115-256 256-256 141 0 256 115 256 256 0 141-115 256-256 256z m0-490c-129 0-234 105-234 234 0 129 105 234 234 234 129 0 234-105 234-234 0-129-105-234-234-234z m-56 279c0 18-15 33-33 33-18 0-33-15-33-33 0-19 15-34 33-34 18 0 33 15 33 34z m-44 0c0 6 5 11 11 11 6 0 11-5 11-11 0-7-5-12-11-12-6 0-11 5-11 12z m189 33c-18 0-33-15-33-33 0-19 15-34 33-34 18 0 33 15 33 34 0 18-15 33-33 33z m0-45c-6 0-11 5-11 12 0 6 5 11 11 11 6 0 11-5 11-11 0-7-5-12-11-12z m19-91c-5 4-12 3-16-1-23-26-57-41-92-41-35 0-69 15-92 41-4 4-11 5-16 1-4-5-5-12 0-16 27-31 67-48 108-48 42 0 81 17 108 48 5 4 4 11 0 16z"/>
<glyph glyph-name="settings" unicode="&#111;" d="M409 205c-10 0-18-3-26-3l-73 74 61 62 79 28 58 94c3 5 3 13 0 15l-30 31c-5 5-13 5-18 2l-97-56-31-81-61-61-69 73c0 8 3 16 3 26 0 66-64 115-127 99l38-38c20-20 20-51 0-71-21-21-51-21-72 0l-40 35c-21-73 48-145 125-122l73-74-30-30c-18 5-36 0-49-13l-104-105c-20-20-23-51-5-71 20-23 53-23 74-3l107 107c13 13 18 34 13 49l30 30 74-73c-2-8-2-18-2-26 0-66 63-115 127-99l-38 38c-21 20-21 51 0 71 20 21 51 21 71 0l38-38c18 66-33 130-99 130z"/>
<glyph glyph-name="tag" unicode="&#112;" d="M512 414l-98 98-124 0-290-290 225-225 290 287z m-127-81c-30 0-52 22-52 52 0 29 22 52 52 52 29 0 52-23 52-52 0-30-23-52-52-52z"/>
<glyph glyph-name="time" unicode="&#113;" d="M256 510c-141 0-256-115-256-256 0-141 115-256 256-256 141 0 256 115 256 256 0 141-115 256-256 256z m0-434c-100 0-182 78-182 178 0 100 82 182 182 182 100 0 182-82 182-182 0-100-82-178-182-178z m22 212l0 66c0 8-11 19-18 19-8 0-19-11-19-19l0-74c0 0 0-4 0-4 0 0 0-3 0-3 0 0 0 0 0-4 0 0 0-4 4-4l93-74c3-4 7-4 11-4 3 0 11 4 15 8 7 7 7 18 0 22z"/>
<glyph glyph-name="twitter" unicode="&#114;" d="M295 355c-22-7-35-27-34-49l1-8-9 1c-32 3-59 17-83 39l-11 11-3-8c-6-18-2-38 11-51 7-7 5-8-7-3-4 1-8 2-8 1-1-1 3-16 6-23 5-8 14-17 24-22l9-3-11-1c-9 0-10 0-9-3 4-12 18-23 33-29l11-3-10-6c-14-8-30-12-46-12-8 0-14-1-14-2 0-1 21-11 33-15 37-11 81-6 114 13 23 13 47 40 58 66 6 14 12 40 12 52 0 8 0 9 10 18 5 6 11 12 12 13 2 4 1 4-7 1-15-5-17-5-10 3 5 6 12 15 12 18 0 1-3 0-6-1-3-2-10-5-15-6l-9-3-9 5c-5 4-11 7-15 8-8 2-22 2-30-1z m-35-337c-137 0-248 108-248 242 0 135 111 243 248 243 138 0 249-108 249-243 0-134-111-242-249-242z"/>
<glyph glyph-name="postby" unicode="&#115;" d="M182 128c-102 6-182 90-182 192 0 106 86 192 192 192l128 0c106 0 192-86 192-192 0-96-70-173-160-189l0-131z m10 320c-70 0-128-58-128-128 0-70 58-128 128-128l10 0 86-64 0 64 32 0c70 0 128 58 128 128 0 70-58 128-128 128z"/>
<glyph glyph-name="play-icon" unicode="&#116;" d="M256 512c-141 0-256-115-256-256 0-141 115-256 256-256 141 0 256 115 256 256 0 141-115 256-256 256z m88-270l-128-80c-2-1-5-2-8-2-3 0-5 1-8 2-5 3-8 8-8 14l0 160c0 6 3 11 8 14 5 3 12 3 16 0l128-80c5-3 8-8 8-14 0-6-3-11-8-14z"/>
<glyph glyph-name="play" unicode="&#117;" d="M467 279l-399 230c-17 9-37-3-37-22l0-460c0-19 20-31 37-22l399 230c16 10 16 34 0 44z"/>
<glyph glyph-name="pin" unicode="&#118;" d="M445 286c-6-44-23-84-45-121-31-54-70-102-115-145-8-7-16-13-24-20-2 0-5 0-7 0-4 2-7 4-10 6-50 47-93 99-129 158-20 33-36 68-45 107-2 8-3 16-4 23-1 10-2 19-2 28 1 7 1 13 2 20 13 80 58 134 135 161 10 4 21 5 31 8 9 0 18 1 26 1 7-1 13-1 19-2 75-8 142-65 163-138 2-9 4-19 6-29 1-8 1-17 2-26-1-11-2-21-3-31z m-67 138c-41 48-94 64-155 52-76-14-130-82-127-159 2-40 14-76 32-111 23-46 54-87 89-126 13-14 26-28 39-42 2 1 2 1 3 1 44 42 83 87 113 140 25 42 42 86 43 136 1 41-10 78-37 109z m-119-168c-41-2-81 34-84 75-2 42 34 82 75 85 42 2 82-34 85-76 2-42-34-82-76-84z m-6 128c-29-2-47-22-46-51 2-28 22-46 51-45 28 2 46 22 45 51-2 28-22 46-50 45z"/>
<glyph glyph-name="phone-call" unicode="&#119;" d="M411 0c-21 0-47 5-75 16-62 23-129 70-190 130-60 61-107 128-130 190-21 57-21 103 0 124 3 3 6 6 9 10 20 20 41 43 70 42 20-1 40-13 59-38 59-73 33-99 2-129l-5-5c-5-5-15-28 73-116 29-29 53-50 73-62 12-8 34-20 43-11l5 5c30 31 56 57 129-2 25-19 37-39 38-59 1-29-22-51-42-70-4-3-7-6-10-9-10-11-27-16-49-16z m-318 495c-20 0-39-20-55-37-4-4-7-7-10-10-16-16-14-57 4-106 23-60 67-125 126-184 59-59 124-103 184-126 49-18 90-20 106-4 3 3 6 6 10 10 18 16 38 36 37 57-1 14-11 30-32 46-60 49-77 32-105 3l-6-5c-13-14-35-11-65 8-20 14-46 35-75 65-73 73-96 117-73 140l5 6c29 28 46 45-3 105-16 21-32 31-46 32-1 0-1 0-2 0z"/>
<glyph glyph-name="phone" unicode="&#120;" d="M474 59c15 22 3 44-3 57 0 3-4 3-4 6-6 19-101 44-107 44-3 0-3 0-6 0-13-3-25-16-57-41-32 19-76 60-98 85-22 25-50 70-63 101 35 32 47 44 51 60 0 6-16 104-32 114 0 0-3 3-6 3-10 3-19 9-32 13l-12 0c-7-4-10-4-13-7-13-6-44-28-57-53 0-4-3-7-3-13l0-44c3-60 28-158 104-243 92-101 202-126 249-130l29 0c28 10 53 38 60 48z"/>
<glyph glyph-name="pdf" unicode="&#121;" d="M445 402l-107 107c-2 2-4 3-7 3l-224 0c-24 0-43-19-43-43l0-426c0-24 19-43 43-43l298 0c24 0 43 19 43 43l0 352c0 2-1 5-3 7z m-104 74l71-71-49 0c-12 0-22 10-22 22z m86-433c0-12-10-22-22-22l-298 0c-12 0-22 10-22 22l0 426c0 12 10 22 22 22l213 0 0-64c0-24 19-43 43-43l64 0z m-117 156c-9 8-19 16-25 22-8 8-15 16-22 23 10 31 14 46 14 55 0 35-12 42-32 42-14 0-32-7-32-43 0-16 9-36 26-58-4-13-9-28-14-45-3-8-6-15-9-22-3-1-5-2-7-3-9-5-17-9-24-12-34-16-57-27-57-48 0-15 17-25 32-25 20 0 50 27 72 71 22 9 51 16 73 20 18-14 37-27 47-27 26 0 32 16 32 28 0 26-29 26-43 26-4 0-16-2-31-4z m-150-92c-6 0-10 3-11 3 0 8 23 18 45 29 1 0 2 1 4 2-16-24-32-34-38-34z m75 191c0 22 7 22 10 22 8 0 11 0 11-21 0-5-3-16-8-34-9 13-13 24-13 33z m8-115c1 2 1 4 2 6 4 11 7 22 10 32 5-5 10-10 15-15 2-2 7-7 13-12-13-3-27-7-40-11z m120-6c0-4 0-6-10-6-3 0-10 4-18 10 3 0 5 0 6 0 16 0 21-1 22-4z"/>
<glyph glyph-name="paypal" unicode="&#122;" d="M330 512l-224 0-99-456 131 0 33 151 94 0c89 0 165 56 185 150 23 107-54 155-120 155z m-98-218l-43 0 29 125 64 0c22 0 39-13 44-32-3 0-5 1-8 1l-65 0z m94 63c-8-34-40-61-73-62l16 68 58 0c0-2 0-4-1-6z m160-31c7 35 4 64-7 87 22-26 33-63 22-112-20-95-95-150-185-150l-94 0-32-151-132 0 6 25 110 0 32 151 94 0c90 0 165 55 186 150z"/>
<glyph glyph-name="pause" unicode="&#65;" d="M156 512c-31 0-56-25-56-56l0-400c0-31 25-56 56-56 30 0 55 25 55 56l0 400c0 31-25 56-55 56z m200 0c-31 0-56-25-56-56l0-400c0-31 25-56 56-56 31 0 56 25 56 56l0 400c0 31-25 56-56 56z"/>
<glyph glyph-name="mobile-icon" unicode="&#66;" d="M364 512l-216 0c-20 0-37-17-37-37l0-438c0-20 17-37 37-37l216 0c20 0 37 17 37 37l0 438c0 20-17 37-37 37z m-161-23l106 0c3 0 5-4 5-9 0-5-2-9-5-9l-106 0c-3 0-5 4-5 9 0 5 2 9 5 9z m53-452c-13 0-24 10-24 24 0 13 11 23 24 23 13 0 24-10 24-23 0-14-11-24-24-24z m117 81l-234 0 0 331 234 0z"/>
<glyph glyph-name="meh" unicode="&#67;" d="M256 512c-141 0-256-115-256-256 0-141 115-256 256-256 141 0 256 115 256 256 0 141-115 256-256 256z m0-490c-129 0-234 105-234 234 0 129 105 234 234 234 129 0 234-105 234-234 0-129-105-234-234-234z m-89 245c18 0 33 15 33 34 0 18-15 33-33 33-18 0-33-15-33-33 0-19 15-34 33-34z m0 45c6 0 11-5 11-11 0-7-5-12-11-12-6 0-11 5-11 12 0 6 5 11 11 11z m178 22c-18 0-33-15-33-33 0-19 15-34 33-34 18 0 33 15 33 34 0 18-15 33-33 33z m0-45c-6 0-11 5-11 12 0 6 5 11 11 11 6 0 11-5 11-11 0-7-5-12-11-12z m22-89l-222 0c-6 0-11-5-11-11 0-6 5-11 11-11l222 0c6 0 11 5 11 11 0 6-5 11-11 11z"/>
<glyph glyph-name="mail" unicode="&#68;" d="M455 441l-398 0c-31 0-57-26-57-57l0-256c0-31 26-57 57-57l398 0c31 0 57 26 57 57l0 256c0 31-26 57-57 57z m-276-208l46-40c8-8 20-11 31-11 11 0 23 3 31 11l46 40 102-102-358 0z m-122-85l0 193 102-91z m296 102l102 91 0-193z m102 134l0-6-188-165c-5-5-17-5-22 0l-188 165 0 6z"/>
<glyph glyph-name="edit" unicode="&#69;" d="M488 488c-33 32-86 32-118 0l-335-335c0 0 0 0 0 0 0 0 0-1 0-1-1 0-1-1-2-2 0 0 0 0 0-1 0 0 0 0 0 0l-33-138c0 0 0-1 0-1 0-1 0-1 0-1 0-1 0-2 1-3 0 0 0 0 0-1 0-1 1-1 2-2 1-1 2-2 3-2 1-1 2-1 3-1 1 0 2 0 2 0l138 33c0 0 0 0 1 0 0 0 0 0 1 1 0 0 1 0 1 1 1 0 1 0 1 0 0 0 0 0 0 0l335 335c32 32 32 85 0 118z m-13-13c23-24 25-60 6-85l-91 91c25 19 61 17 85-6z m-46-138l-92 92 13 13 92-92z m-383-291c-4 4-10 4-13 0l-7-7 24 99 41 5-6-48c0 0 0 0 0-1 0 0 0 0 0-1 0 0 0 0 0 0 1-1 1-1 1-2 0-1 0-1 1-2 0 0 0 0 1-1 0 0 1-1 1-1 1 0 1-1 1-1 1 0 2 0 2 0 1-1 1-1 1-1 1 0 1 0 1 0 0 0 0 0 0 0 0 0 0 0 0 0l0 0c0 0 0 0 0 0 1 0 1 0 1 0l48 6-5-41-99-24 7 7c4 3 4 9 0 13z m116 51l208 207c3 4 3 10 0 13-4 4-10 4-13 0l-208-207-44-5 5 44 207 208c4 3 4 9 0 13-3 3-9 3-13 0l-207-208-30-3 257 257 92-92-257-257z m293 266l-92 92 13 13 92-92z"/>
<glyph glyph-name="eye" unicode="&#70;" d="M506 276c-27 43-63 78-108 105-45 26-92 40-142 40-50 0-98-14-143-40-45-27-81-62-107-105-4-7-6-13-6-20 0-6 2-13 6-20 26-43 62-78 107-105 45-26 93-39 143-39 50 0 97 13 142 39 45 27 81 62 108 105 4 7 6 14 6 20 0 7-2 13-6 20z m-311 78c17 17 37 26 61 26 4 0 7-2 10-4 2-3 4-6 4-10 0-4-2-7-4-10-3-3-6-4-10-4-17 0-31-6-42-17-12-12-18-26-18-42 0-4-1-7-4-10-2-3-5-4-9-4-4 0-7 1-10 4-3 3-4 6-4 10 0 24 9 44 26 61z m185-191c-38-23-80-35-124-35-45 0-86 12-124 35-38 23-70 54-95 93 28 45 65 79 108 101-11-20-17-41-17-64 0-35 12-66 37-91 25-25 56-37 91-37 35 0 65 12 90 37 25 25 38 56 38 91 0 23-6 44-18 64 44-22 80-56 109-101-25-39-57-70-95-93z"/>
<glyph glyph-name="facebook" unicode="&#71;" d="M214 119l56 0 0 132 37 0 5 46-42 0 0 23c0 12 1 18 18 18l24 0 0 45-38 0c-45 0-60-22-60-59l0-27-28 0 0-46 28 0z m35-110c-137 0-249 108-249 242 0 135 112 243 249 243 137 0 248-108 248-243 0-134-111-242-248-242z"/>
<glyph glyph-name="cancel" unicode="&#72;" d="M506 506c-8 8-21 8-29 0l-471-471c-8-8-8-21 0-29 4-4 9-6 15-6 5 0 10 2 14 6l471 471c8 8 8 21 0 29z m0-471l-471 471c-8 8-21 8-29 0-8-8-8-21 0-29l471-471c4-4 9-6 14-6 6 0 11 2 15 6 8 8 8 21 0 29z"/>
<glyph glyph-name="btn-arrow" unicode="&#73;" d="M256 0c-136 0-246 111-246 247 0 136 110 246 246 246 136 0 246-110 246-246 0-136-110-247-246-247z m0 449c-112 0-202-90-202-202 0-111 90-202 202-202 111 0 201 91 201 202 0 112-90 202-201 202z m-54-283l81 81-82 81 32 32 113-113-112-113z"/>
<glyph glyph-name="category" unicode="&#74;" d="M128 416c0-16-16-32-32-32l-64 0c-19 0-32 16-32 32l0 64c0 16 13 32 32 32l64 0c16 0 32-16 32-32z m0-192c0-19-16-32-32-32l-64 0c-19 0-32 13-32 32l0 64c0 16 13 32 32 32l64 0c16 0 32-16 32-32z m0-192c0-16-16-32-32-32l-64 0c-19 0-32 16-32 32l0 64c0 16 13 32 32 32l64 0c16 0 32-16 32-32z m384 384c0-16-16-32-32-32l-256 0c-19 0-32 16-32 32l0 64c0 16 13 32 32 32l256 0c16 0 32-16 32-32z m0-192c0-19-16-32-32-32l-256 0c-19 0-32 13-32 32l0 64c0 16 13 32 32 32l256 0c16 0 32-16 32-32z m0-192c0-16-16-32-32-32l-256 0c-19 0-32 16-32 32l0 64c0 16 13 32 32 32l256 0c16 0 32-16 32-32z"/>
<glyph glyph-name="chat" unicode="&#75;" d="M254 2c-140 0-254 114-254 254 0 140 114 254 254 254 140 0 254-114 254-254 0-43-11-85-31-122l35-131-128 35c-39-24-84-36-130-36z m0 478c-123 0-224-101-224-224 0-123 101-224 224-224 43 0 84 12 120 35l5 3 90-24-25 92 4 6c19 34 30 73 30 112 0 123-100 224-224 224z"/>
<glyph glyph-name="check-mark" unicode="&#76;" d="M512 387l-319-319c-2-3-7-3-10 0l-181 181c-3 3-3 8 0 10l44 44c3 3 7 3 10 0l132-132 270 270c3 3 8 3 10 0l44-44c3-2 3-7 0-10z"/>
<glyph glyph-name="copy" unicode="&#77;" d="M330 422l-239 0c-22 0-40-18-40-40l0-342c0-22 18-40 40-40l239 0c22 0 40 18 40 40l0 342c0 22-18 40-40 40z m12-381c0-7-6-13-13-13l-238 0c-6 0-12 6-12 13l0 341c0 7 6 12 12 12l238 0c7 0 13-5 13-12z m79 471l-239 0c-22 0-40-18-40-40 0-8 6-15 14-15 8 0 14 7 14 15 0 6 6 12 12 12l239 0c6 0 12-6 12-12l0-342c0-7-6-12-12-12-8 0-15-6-15-14 0-8 7-14 15-14 22 0 40 18 40 40l0 342c0 22-18 40-40 40z"/>
<glyph glyph-name="credit-card" unicode="&#78;" d="M462 73l-410 0c-29 0-52 23-52 51l0 264c0 28 23 51 52 51l408 0c29 0 52-23 52-51l0-265c1-27-22-50-50-50z m-410 332c-10 0-18-8-18-17l0-265c0-9 8-17 18-17l408 0c10 0 18 8 18 17l0 265c0 9-8 17-18 17z m-35-46l478 0 0-64-478 0z m417-180c0-21-17-38-38-38-21 0-38 17-38 38 0 21 17 38 38 38 21 0 38-17 38-38z m-50 0c0-21-17-38-38-38-21 0-38 17-38 38 0 21 17 38 38 38 21 0 38-17 38-38z m-190 61l-112 0c-3 0-5 2-5 6 0 3 2 5 5 5l112 0c3 0 5-2 5-5 0-3-2-6-5-6z"/>
<glyph glyph-name="date" unicode="&#79;" d="M416 480l0 32-32 0 0-32-64 0 0 32-32 0 0-32-64 0 0 32-32 0 0-32-64 0 0 32-32 0 0-32-96 0 0-480 512 0 0 480z m32-416l-384 0 0 352 32 0 0-32 32 0 0 32 64 0 0-32 32 0 0 32 64 0 0-32 32 0 0 32 64 0 0-32 32 0 0 32 32 0z"/>
<glyph glyph-name="delete" unicode="&#80;" d="M424 452l-69 0 0 44c0 9-7 16-16 16-1 0-1 0-2-1 0 1-1 1-1 1l-163 0c-9 0-16-7-16-16l0-44-68 0c-20 0-35-16-35-35l0-57 30 0 0-326c0-19 15-34 35-34l275 0c19 0 34 15 34 34l0 326 31 0 0 57c0 19-16 35-35 35z m-235 28l134 0 0-28-134 0z m207-446c0-2 0-2-2-2l-275 0c-2 0-3 0-3 2l0 326 280 0z m30 357l-340 0 0 26c0 2 1 3 3 3l335 0c2 0 2-1 2-3z m-112-69l32 0 0-262-32 0z m-74 0l32 0 0-262-32 0z m-74 0l33 0 0-262-33 0z"/>
<glyph glyph-name="dollar" unicode="&#81;" d="M385 201c-2 8-5 15-9 21-3 7-8 13-15 18-6 6-12 11-18 15-5 3-12 7-21 12-9 4-16 8-22 10-5 2-13 5-23 9-9 3-16 6-20 8-4 2-10 4-17 7-7 4-13 7-16 9-4 3-7 6-11 10-4 3-7 7-9 12-2 4-2 8-2 13 0 13 5 24 17 32 11 8 26 12 44 12 8 0 16-1 24-3 9-2 16-5 22-7 6-3 11-6 16-10 6-3 9-5 12-7 2-2 3-3 4-4 2-2 5-2 7-2 3 1 5 2 7 5l23 42c2 3 2 7-1 10-1 2-3 3-5 4-1 2-5 5-11 9-5 4-11 7-18 10-6 4-14 7-25 10-10 3-20 5-31 7l0 50c0 3-1 5-3 6-2 2-4 3-6 3l-39 0c-2 0-5-1-6-3-2-2-3-4-3-6l0-52c-30-5-54-18-73-38-19-20-28-43-28-69 0-8 1-15 3-22 1-7 3-14 6-19 2-6 5-11 10-17 4-5 8-10 12-14 4-4 9-8 15-12 7-4 12-7 17-10 4-3 10-5 17-9 8-3 14-6 18-7 4-2 10-4 18-7 10-4 17-8 22-10 5-2 12-5 19-9 8-4 13-7 17-11 3-3 7-7 9-12 3-4 5-9 5-15 0-15-6-26-18-35-12-8-25-12-40-12-8 0-15 1-22 2-24 5-47 17-69 36l-1 1c-1 2-4 3-6 2-3 0-6-1-7-3l-29-39c-3-4-3-7 0-11 1-2 3-3 5-6 3-2 7-5 13-10 7-5 14-10 22-14 7-4 17-8 29-13 11-4 23-7 36-9l0-49c0-3 1-5 3-7 1-2 4-3 6-3l39 0c2 0 5 1 6 3 2 2 3 4 3 7l0 49c30 5 55 18 74 39 19 21 28 47 28 76 0 9-1 18-4 27z"/>
<glyph glyph-name="download" unicode="&#82;" d="M512 102c0-31-20-55-48-60-5-1-10-1-15-1-64 0-129 0-194 0-64 0-129 0-193 0-19 0-34 5-47 19-10 11-15 24-15 38 0 39 0 78 0 116 0 10 7 17 16 17 8 0 15-7 15-17 0-37 0-74 0-111 0-20 11-30 30-30 130 0 260 0 390 0 19 0 29 10 29 29 0 37 0 74 1 110 0 5 1 10 4 13 3 6 9 7 15 6 7-2 11-6 12-13 0-2 0-4 0-6 0-37 0-73 0-110z m-155 135c-23-23-45-46-68-69-20-20-46-20-66 0-23 24-47 48-70 72-9 10-6 23 6 27 3 1 7 0 11-1 2-1 4-3 6-5 20-20 40-40 60-60 1-1 2-2 4-4 0 3 0 5 0 7 0 82 0 165 0 247 0 3 0 6 1 9 2 7 9 12 17 11 7-1 13-7 13-14 1-2 1-5 1-7 0-82 0-165 0-248 0-1 0-3 0-5 0-1 1-1 2-2 1 2 1 4 2 5 20 20 40 40 60 60 8 8 15 9 22 3 7-5 8-13 4-20-1-2-3-4-5-6z"/>
<glyph glyph-name="linkedin" unicode="&#83;" d="M256 512c141 0 256-115 256-256 0-141-115-256-256-256-141 0-256 115-256 256 0 141 115 256 256 256z m-112-352l48 0 0 160-48 0z m187 166c-23 0-44-9-59-28l0 23-48 0 0-161 48 0 0 87c0 18 17 36 38 36 21 0 26-18 26-36l0-87 48 0 0 91c0 63-30 75-53 75z m-163 10c13 0 24 11 24 24 0 13-11 24-24 24-13 0-24-11-24-24 0-13 11-24 24-24z"/>
<glyph glyph-name="lin-arrow" unicode="&#84;" d="M0 289c143 0 287 0 430 0-49 52-97 103-145 154 10 11 20 21 30 32 66-69 131-139 197-208-66-70-131-139-197-208-10 10-20 21-30 31 49 51 97 102 145 153 0 1 0 1 0 1-143 0-287 0-430 0 0 15 0 30 0 45z"/>
<glyph glyph-name="update" unicode="&#85;" d="M498 456c-10 2-20-4-22-14l-14-63c-43 73-122 119-208 119-134 0-242-108-242-241 0-11 8-19 18-19 11 0 19 8 19 19 0 112 92 204 205 204 73 0 140-39 177-102l-62 14c-10 2-20-5-23-15-2-10 5-20 15-22l106-23c2 0 4 0 6 0 3 0 6 1 8 3 4 3 7 7 8 12l23 106c2 10-4 20-14 22z m-19-175c-10 0-18-9-18-19 2-55-18-107-55-147-37-40-88-63-143-65-2 0-4 0-6 0-72 0-137 37-175 97l65-17c10-3 20 3 23 13 3 10-3 20-13 23l-105 28c-5 1-10 1-14-2-5-2-8-6-9-11l-28-105c-3-10 3-20 13-23 1 0 3-1 5-1 8 0 15 6 18 14l15 59c45-69 121-112 205-112 2 0 5 0 8 0 64 2 124 29 168 77 44 47 67 108 65 173 0 10-9 18-19 18z"/>
<glyph glyph-name="left-quote" unicode="&#86;" d="M206 392c12 5 18 21 12 33l-20 43c-6 12-20 17-32 12-36-15-66-35-90-58-29-28-49-60-59-95-11-35-17-84-17-145l0-127c0-13 11-25 25-25l162 0c14 0 25 12 25 25l0 162c0 14-11 25-25 25l-78 0c1 42 11 75 29 101 15 20 37 36 68 49z m291 0c13 5 18 21 13 33l-21 42c-5 12-20 18-32 12-35-15-64-34-89-57-29-28-49-60-60-95-11-35-16-83-16-145l0-127c0-13 11-25 25-25l162 0c14 0 25 12 25 25l0 162c0 14-11 25-25 25l-78 0c1 42 11 75 29 101 15 20 37 36 67 49z"/>
<glyph glyph-name="instagram" unicode="&#87;" d="M256 0c-141 0-256 115-256 256 0 141 115 256 256 256 141 0 256-115 256-256 0-141-115-256-256-256z m156 330c0 2-1 4-1 6-3 22-12 39-28 54-12 10-25 16-39 20-4 0-9 1-13 1 0 0-1 1-1 1-49 0-99 0-148 0-2-1-4-1-6-1-18-2-33-9-46-20-15-14-25-30-28-50-1-3-1-7-2-10 0 0 0-1 0-1 0-49 0-99 0-148 1-2 1-4 1-7 3-21 12-38 28-53 10-8 21-15 34-18 6-2 12-3 18-4 0 0 1 0 1 0 49 0 99 0 148 0 2 0 4 1 7 1 21 3 38 12 53 28 10 12 17 25 20 41 1 3 1 7 2 11 0 0 0 1 0 1 0 49 0 99 0 148z m-52 12c-10 0-18 8-17 18 0 9 7 17 17 17 9 0 17-8 17-17 0-10-8-18-17-18z m-104-173c-48 0-86 39-86 87-1 48 39 87 87 86 47 0 86-39 86-86-1-48-39-87-87-87z m0 139c-29 0-52-23-52-52 0-29 23-52 52-52 29 0 52 23 52 52 0 29-23 52-52 52z"/>
<glyph glyph-name="image" unicode="&#88;" d="M0 464l0-416 512 0 0 416z m476-381l-440 0 0 47 101 101 95-96 143 143 101-101z m0 145l-101 101-143-143-95 95-101-101 0 249 440 0z m-244 165c-29 0-53-24-53-54 0-29 24-53 53-53 30 0 54 24 54 53 0 30-24 54-54 54z m0-72c-10 0-18 8-18 18 0 10 8 18 18 18 10 0 18-8 18-18 0-10-8-18-18-18z"/>
<glyph glyph-name="home" unicode="&#89;" d="M508 278l-77 71 0 116-87 0 0-34-88 81-252-234c-3-3-3-8 0-12 3-4 9-4 12 0l29 27 0-293 422 0 0 293 29-27c1-2 3-3 6-3 2 0 4 1 6 3 3 4 3 9 0 12z m-147 169l53 0 0-82-53 49z m-158-429l0 184c0 5 4 9 9 9l88 0c5 0 9-4 9-9l0-184z m246 0l-123 0 0 184c0 15-11 26-26 26l-88 0c-15 0-26-11-26-26l0-184-123 0 0 291 193 179 125-116 50-47 18-16z"/>
<glyph glyph-name="happy" unicode="&#90;" d="M345 356c-18 0-33-15-33-33 0-19 15-34 33-34 18 0 33 15 33 34 0 18-15 33-33 33z m0-44c-6 0-11 5-11 11 0 6 5 11 11 11 6 0 11-5 11-11 0-6-5-11-11-11z m-178-23c18 0 33 15 33 34 0 18-15 33-33 33-18 0-33-15-33-33 0-19 15-34 33-34z m0 45c6 0 11-5 11-11 0-6-5-11-11-11-6 0-11 5-11 11 0 6 5 11 11 11z m89 178c-141 0-256-115-256-256 0-141 115-256 256-256 141 0 256 115 256 256 0 141-115 256-256 256z m0-490c-129 0-234 105-234 234 0 129 105 234 234 234 129 0 234-105 234-234 0-129-105-234-234-234z m111 201l-222 0c-6 0-11-5-11-12 0-67 54-122 122-122 68 0 122 55 122 122 0 7-5 12-11 12z m-111-112c-51 0-94 39-100 89l200 0c-6-50-49-89-100-89z"/>
<glyph glyph-name="googleplus" unicode="&#48;" d="M264 503c-138 0-249-108-249-243 0-134 111-242 249-242 137 0 248 108 248 242 0 135-111 243-248 243z m51-243c0-60-48-108-108-108-61 0-111 49-111 108 0 60 50 109 111 109 26 0 52-10 72-26l-27-31c-13 10-29 16-45 16-38 0-69-30-69-68 0-37 31-67 69-67 30 0 55 20 63 47l-63 0 0 36 108 0z m116-15l-31 0 0-30-31 0 0 30-31 0 0 31 31 0 0 30 31 0 0-30 31 0z"/>
<glyph glyph-name="google-drive" unicode="&#49;" d="M511 182l-174 295c-1 3-4 4-7 4l-156 0c-4 0-7-1-8-3l-165-277c-1-3-2-7 0-9l77-154c0-1 0-2 1-3 1-1 2-2 3-3 1-1 3-1 5-1l338 0c3 0 6 1 8 4l78 139c1 2 1 6 0 8z m-23 5l-145 0-89 159c0 1 0 2-1 3l-64 115 135 0z m-165 0l-150 0 72 139z m-150 268l35-63 27-48-83-161c0 0-1 0-1-1l-64-123-69 136z m247-407l-319 0 63 121 324 0z"/>
<glyph glyph-name="pinterest" unicode="&#50;" d="M256 512c-141 0-256-115-256-256 0-141 115-256 256-256 141 0 256 115 256 256 0 141-115 256-256 256z m20-325c-19 1-27 11-41 19-8-42-18-82-47-104-9 64 13 112 23 163-17 30 2 90 39 75 46-18-39-110 18-122 60-12 84 104 47 142-53 54-156 1-143-77 3-19 23-25 8-51-34 7-45 35-43 71 2 59 53 100 104 106 64 7 125-24 133-85 9-68-29-143-98-137z"/>
<glyph glyph-name="twitter-1" unicode="&#51;" d="M254 512c-140 0-254-114-254-254 0-140 114-254 254-254 140 0 254 114 254 254 0 140-114 254-254 254z m114-196c0-3 0-5 0-8 0-77-59-166-167-166-33 0-63 10-89 26 4 0 9-1 14-1 27 0 52 10 72 25-25 1-47 18-54 41 3-1 7-1 11-1 5 0 10 1 15 2-27 5-47 29-47 57 0 1 0 1 0 1 8-4 17-7 27-7-16 10-26 28-26 49 0 10 2 20 7 29 29-35 72-59 121-61-1 4-1 9-1 13 0 32 26 59 58 59 17 0 32-7 43-19 13 3 26 8 37 14-4-13-14-25-26-32 12 1 23 5 34 9-8-12-18-22-29-30z"/>
<glyph glyph-name="file-archive-o" unicode="&#52;" d="M219 402l0 37-36 0 0-37z m37-36l0 36-37 0 0-36z m-37-37l0 37-36 0 0-37z m37-36l0 36-37 0 0-36z m200 110c5-5 10-12 14-21 4-9 5-18 5-25l0-330c0-7-2-14-8-19-5-5-11-8-19-8l-384 0c-8 0-14 3-19 8-6 5-8 12-8 19l0 458c0 7 2 14 8 19 5 5 11 8 19 8l256 0c8 0 16-2 25-6 9-4 17-8 22-13z m-127 70l0-107 108 0c-2 5-4 9-7 11l-89 90c-2 2-6 4-12 6z m110-436l0 292-119 0c-8 0-14 3-19 8-6 5-8 12-8 20l0 118-37 0 0-36-37 0 0 36-146 0 0-438z m-179 206l30-100c2-5 3-10 3-15 0-16-7-29-21-39-14-11-31-16-53-16-21 0-38 5-52 16-14 10-21 23-21 39 0 5 1 10 3 15 4 12 15 50 34 113l0 37 36 0 0-37 23 0c4 0 8-1 11-4 3-2 6-5 7-9z m-41-133c11 0 19 2 26 5 7 4 11 8 11 13 0 5-4 9-11 13-7 3-15 5-26 5-10 0-18-2-25-5-8-4-11-8-11-13 0-5 3-9 11-13 7-3 15-5 25-5z"/>
<glyph glyph-name="slider-arrow-l" unicode="&#53;" d="M484 271l-421 0 155 154c6 6 6 15 0 21-3 6-6 6-9 6-3 0-9 0-11-3l-182-181c0 0-3-3-3-6 0-3 0-3 0-6 0-3 0-3 0-6 3 0 3-3 3-3l182-181c5-6 14-6 20 0 6 6 6 15 0 21l-155 154 421 0c9 0 15 6 15 15 0 9-6 15-15 15z"/>
</font>
</defs>
</svg>
